[PV] Nogizaka46 – Kimi wa Boku to Awanai Kata ga Yokatta no Kana [2015.03.18]

(乃木坂46 – 君は僕と会わない方がよかったのかな)

General

ID : 0 (0x0)

Complete name : C:327 Nogizaka46 Kimi wa Boku to Awanai Kata ga Yokatta no Kana.ts

Format : MPEG-TS

File size : 670 MiB

Duration : 5mn 9s

Overall bit rate : 18.1 Mbps

Video

ID : 17 (0x11)

Menu ID : 1 (0x1)

Format : MPEG Video

Format version : Version 2

Format profile : Main@High

Format settings, BVOP : Yes

Format settings, Matrix : Default

Format settings, GOP : M=3, N=12

Codec ID : 2

Duration : 5mn 9s

Bit rate : 17.0 Mbps

Maximum bit rate : 17.4 Mbps

Width : 1 920 pixels

Height : 1 080 pixels

Display aspect ratio : 16:9

Frame rate : 29.970 fps

Color space : YUV

Chroma subsampling : 4:2:0

Bit depth : 8 bits

Scan type : Interlaced

Scan order : Top Field First

Compression mode : Lossy

Bits/(Pixel*Frame) : 0.274

Stream size : 628 MiB (94%)

Audio

ID : 20 (0x14)

Menu ID : 1 (0x1)

Format : AAC

Format/Info : Advanced Audio Codec

Format version : Version 2

Format profile : LC

Muxing mode : ADTS

Codec ID : 15

Duration : 5mn 9s

Bit rate mode : Constant / Variable / Variable

Bit rate : 222 Kbps

Minimum bit rate : 201 Kbps / 201 Kbps

Maximum bit rate : 447 Kbps / 447 Kbps

Channel(s) : 2 channels

Channel positions : Front: L R

Sampling rate : 48.0 KHz

Compression mode : Lossy

Delay relative to video : -238ms

Stream size : 8.22 MiB (1%)

Download TS

Download 480P

Comments

=>Ini tempat buat ninggalin jejak

Leave a Reply

Your email address will not be published. Required fields are marked *