AKB48 SKE48 LIVE in ASIA (Macau Concert)[SKY PerfecTV! Ch.800]

Description
KYORAKU PRESENTS AKB48 SKE48 LIVE IN ASIA [SKY PerfecTV! Ch.800]
1440x1080p H.264 AAC

This one is higher bitrate than previous torrent.

Concert date: November 16, 2010, Sands Theater, Macau.
Broadcast date: December 18, 2010.

Members:
AKB48
Oya Shizuka, Umeda Ayaka, Tanabe Miku, Nakatsuka Tomomi, Nito Moeno, Matsui Sakiko, Minegishi Minami, Kasai Tomomi, Kitahara Rie, Komori Mika, Satou Amina, Satou Sumire
SKE48
Hiramatsu Kanako, Ishida Anna, Kimoto Kanon, Kizaki Yuria, Kuwabara Mizuki, Matsui Jurina, Matsui Rena, Mukaida Manatsu, Oya Masana, Suda Akari, Takayanagi Akane, Yagami Kumi

Setlist:
01. overture
02. RIVER (Oya Shizuka, Umeda Ayaka, Minegishi Minami, Nito Moeno, Matsui Sakiko, Kasai Tomomi, Sato Amina, Ishida Anna, Kuwabara Mizuki, Matsui Jurina, Mukaida Manatsu, Oya Masana, Suda Akari, Takayanagi Akane, Yagami Kumi)
03. 10nen Zakura (AKB48)
04. Tsuyokimono yo (SKE48)
05. Aitakatta (All Members)
06. Omoide Ijou (Hiramatsu Kanako, Kizaki Yuria, Kuwabara Mizuki)
07. Wimbledon e Tsuretette (Ishida Anna, Kimoto Kanon, Takayanagi Akane)
08. Kareha no Station (Matsui Rena)
09. End Roll (Minegishi Minami, Kitahara Rie, Matsui Jurina, Yagami Kumi)
10. Candy (Kasai Tomomi, Komori Mika, Satou Amina)
11. Ashita no Tame ni Kiss wo (Umeda Ayaka, Tanabe Miku, Nito Moeno, Matsui Sakiko)
12. Aozora Kataomoi (SKE48)
13. Gomen ne, SUMMER (SKE48)
14. Iiwake Maybe (AKB48)
15. Namida Surprise! (AKB48)
16. Beginner (Tanabe Miku, Nito Moeno, Matsui Sakiko, Minegishi Minami, Kasai Tomomi, Kitahara Rie, Satou Amina, Satou Sumire, Hiramatsu Kanako, Kizaki Yuria, Kuwabara Mizuki, Matsui Jurina, Matsui Rena, Oya Masana, Suda Akari, Yagami Kumi)
17. Ponytail to Shushu (All Members)

Encore
18. Heavy Rotation (Oya Shizuka, Umeda Ayaka, Nakatsuka Tomomi, Nito Moeno, Matsui Sakiko, Minegishi Minami, Kasai Tomomi, Kitahara Rie, Hiramatsu Kanako, Ishida Anna, Kizaki Yuria, Matsui Jurina, Matsui Rena, Oya Masana, Suda Akari, Yagami Kumi)
19. TWO ROSES (Matsui Jurina, Matsui Rena)
20. 1!2!3!4! YOROSHIKU! (All Members)

Double Encore
21. Aitakatta (All Members)
22. Ponytail to Shushu (All Members)

MediaInfo:
General
Complete name : AKB48 SKE48 LIVE in ASIA (Macau Concert)[SKY PerfecTV! Ch.800].mp4
Format : MPEG-4
Format profile : Base Media
Codec ID : isom
File size : 6.55 GiB
Duration : 1h 30mn
Overall bit rate mode : Constant
Overall bit rate : 10.3 Mbps
Encoded date : UTC 2010-12-19 02:33:59
Tagged date : UTC 2010-12-19 02:33:59

Video
ID : 1
Format : AVC
Format/Info : Advanced Video Codec
Format profile : High@L4.1
Format settings, CABAC : No
Format settings, ReFrames : 1 frame
Format settings, GOP : M=1, N=33
Codec ID : avc1
Codec ID/Info : Advanced Video Coding
Duration : 1h 30mn
Source duration : 1h 30mn
Bit rate mode : Constant
Bit rate : 10 000 Kbps
Width : 1 440 pixels
Height : 1 080 pixels
Display aspect ratio : 4:3
Original display aspect ratio : 16:9
Frame rate mode : Constant
Frame rate : 29.970 fps
Standard : NTSC
Color space : YUV
Chroma subsampling : 4:2:0
Bit depth : 8 bits
Scan type : Progressive
Bits/(Pixel*Frame) : 0.215
Stream size : 6.08 GiB (93%)
Source stream size : 6.35 GiB (97%)
Language : English
Encoded date : UTC 2010-12-19 02:33:59
Tagged date : UTC 2010-12-19 02:33:59
Color primaries : BT.709
Transfer characteristics : BT.709
Matrix coefficients : BT.709
mdhd_Duration : 5450232

Audio
ID : 2
Format : AAC
Format/Info : Advanced Audio Codec
Format profile : LC
Codec ID : 40
Duration : 1h 30mn
Bit rate mode : Constant
Bit rate : 310 Kbps
Channel(s) : 2 channels
Channel positions : Front: L R
Sampling rate : 48.0 KHz
Compression mode : Lossy
Stream size : 201 MiB (3%)
Language : English
Encoded date : UTC 2010-12-19 02:33:59
Tagged date : UTC 2010-12-19 02:33:59
mdhd_Duration : 5455687 

Comments

=>Ini tempat buat ninggalin jejak

Leave a Reply

Your email address will not be published. Required fields are marked *